楚天音画网

 找回密码
 中文注册

QQ登录

只需一步,快速开始

搜索
查看: 1179|回复: 42
打印 上一主题 下一主题

【原抓新碟】孙露《忘不了 DSD》2019年8月FLAC+CUE

[复制链接]
跳转到指定楼层
楼主
发表于 2019-9-5 14:45:30 | 只看该作者 回帖奖励 |倒序浏览 |阅读模式



专辑名称:忘不了DSD
专辑艺人:孙露
出版公司:广东音像出版社有限公司
制作公司:东昇文化
发行公司:广州乐升文化传播有限公司
发行时间:2019年8月20日
资源类型:正版原抓WAV+CUE

专辑简介:
忘不了的人,一定是曾经深爱;
放不下的情,一定是还有期待。
有人感慨着情不知所起,一往情深的悸动;
有人喟叹着斯人若彩虹,遇上方知有;
还有人用一辈子来遗憾,向来缘浅,奈何情深。

“疗伤歌后”孙露,透过其独有的魅力嗓音和真实情感,
淋漓尽致地诠释着世间百态的爱情,用直抵人心的情歌,
给为情所困的人们带来心灵上的慰藉,
新专辑《忘不了》中同样的歌词,却有着不同的曲调和演绎,
句句都能触及你心里最柔软的地方。
每一首经典的情歌都是一段难忘的回忆,
静下心来让我们一起去聆听逝去的时光,
记忆中有哪些经典情歌是让你记忆犹新的,说说“你”与“歌”的故事吧……

★★★★★五星推荐★★★★★
01.《爱我的人和我爱的人》
缘,妙不可言。情,不由自主。心,装满惦记。
人,一生珍惜!有一种陪伴,不在身边,而在心间。
有一种祝福,简单朴实,美好真诚。
孙露以独特的磁性嗓音吟唱抚慰心灵的歌曲,
唱出了爱与被爱的无奈与挣扎。
02.《说谎》
上世纪90年代的味道,在你的生命中,
你可曾有过说谎的经历,最初的时候,你是因为什么而说谎的?
孙露的声音内敛、沉静,即使是炙热情感的表达,也有一种婉转的韵味。
令人唏嘘的伤感情歌,满满的青春回忆,
句句唱进人心底。是一首非常经典的歌曲。
03.《忘不了》
忘不了的人,一定是曾经深爱;放不下的情,一定是还有期待。
不是不想,不是不念。而是想念多了会多愁善感。
来与不来,对这个人的感觉没有改变;
见与不见,对这段情的悸动永如初见;
等与不等,对这份缘的牵引不曾遗憾。
其实,入了心的人,才最难忘;动了情的情,才最难放。
那场最美的遇见,一段纠缠,清瘦了思念。

  专辑曲目:
01 爱我的人和我爱的人
02 说谎
03 忘不了
04 似是故人来
05 孤单的人总说无所谓
06 遇见
07 但愿人长久
08 我要我们在一起
09 失踪
10 想着你的感觉
11 几多愁
12 阳光总在风雨后
================
FLAC/CUE
链接:
https://pan.baidu.com/s/12bXzBGvhQxFP59XAGP9wsg
游客,如果您要查看本帖隐藏内容请回复
================
WAV/CUE
游客,如果您要查看本帖隐藏内容请回复


本帖子中包含更多资源

您需要 登录 才可以下载或查看,没有帐号?中文注册

x

评分

参与人数 8金钱 +95 收起 理由
燕子y + 10 精美作品!
琳吉儿 + 10 精美作品!
八卦掌付 + 15 精美作品!
灰帆 + 15 精美作品!
平淡 + 10 精美作品!
呼吸 + 15 精美作品!
白云云 + 10 精美作品!
小不点 + 10 精美作品!

查看全部评分

沙发
 楼主| 发表于 2019-9-5 14:45:31 | 只看该作者




评分

参与人数 3金钱 +40 收起 理由
灰帆 + 15 精美作品!
呼吸 + 15 精美作品!
小不点 + 10 精美作品!

查看全部评分

板凳
 楼主| 发表于 2019-9-5 14:50:44 | 只看该作者
无损检验:


本专辑为云飞自购原抓收藏,仅供鉴赏试听,请不要分享到其他的网站,谢谢你的配合~

本帖子中包含更多资源

您需要 登录 才可以下载或查看,没有帐号?中文注册

x
地板
 楼主| 发表于 2019-9-5 15:23:20 | 只看该作者
Exact Audio Copy V1.0 beta 3 from 29. August 2011

EAC 抓取日志文件从5. 九月 2019, 15:03

孙露 / 忘不了DSD

使用驱动器  :HL-DT-STDVDROM DH18NS40   Adapter: 0  ID: 0

读取模式      : 可靠Secure
使用精确流     : 是
清空音频缓存    : 是
使用 C2 指示器 : 否

读取偏移校正:               : 0
读取 Lead-In 和 Lead-Out : 否
用静音填充抓取中丢失偏移的采样       : 是
去除首尾静音块               : 否
在CRC 计算中使用了空样本       : 是
已用接口                  : Win NT 及 2000 本地 Win32 接口

所用输出模式: : 内部 WAV 函数
样本格式    : 44.100 Hz; 16 Bit; 立体声


已抓取 CD 的 TOC

     音轨 |    起始    |    长度    |  起始扇区  |  结束扇区  
    --------------------------------------------
      1 |  0:00.00 |  4:13.09 |      0 |  18983
      2 |  4:13.09 |  5:03.13 |  18984 |  41721
      3 |  9:16.22 |  4:34.32 |  41722 |  62303
      4 | 13:50.54 |  4:57.35 |  62304 |  84613
      5 | 18:48.14 |  5:35.07 |  84614 | 109745
      6 | 24:23.21 |  3:44.66 | 109746 | 126611
      7 | 28:08.12 |  4:47.17 | 126612 | 148153
      8 | 32:55.29 |  4:17.37 | 148154 | 167465
      9 | 37:12.66 |  4:06.09 | 167466 | 185924
     10 | 41:19.00 |  5:05.08 | 185925 | 208807
     11 | 46:24.08 |  4:27.73 | 208808 | 228905
     12 | 50:52.06 |  4:49.11 | 228906 | 250591


范围状态及错误

已选择范围

     文件名 C:\Users\Administrator\Desktop\孙露 - 忘不了DSD.wav

     峰值电平 100.0 %
     抓取速度 2.1 X
     范围质量 99.9 %
     复制 CRC 18F1C3AB
     复制成功

没有错误发生

状态报告结尾
5#
发表于 2019-9-5 16:16:17 | 只看该作者
感谢版主分享!!!
6#
发表于 2019-9-5 16:27:45 | 只看该作者
忘不了的人,一定是曾经深爱;放不下的情,一定是还有期待。
7#
发表于 2019-9-5 16:30:06 | 只看该作者
孙露新碟吖,必须支持,谢谢楚帅原抓分享。
8#
发表于 2019-9-5 16:31:21 | 只看该作者
“疗伤歌后”孙露,透过其独有的魅力嗓音和真实情感,淋漓尽致地诠释着世间百态的爱情;
9#
发表于 2019-9-5 17:41:33 | 只看该作者
非常精彩
10#
发表于 2019-9-5 18:18:16 | 只看该作者
一杯清茶、一幅飘墨,一曲绕梁的琴声、、、
您需要登录后才可以回帖 登录 | 中文注册

本版积分规则

QQ|申请友链|楚天音画网 ( 鄂ICP备16017867-1号 |鄂公网安备42011702000120号   

GMT+8, 2019-11-9 07:36

Powered by Discuz! X3.2

© 2001-2013 Comsenz Inc.

快速回复 返回顶部 返回列表